Free Online Movie Sites     Movie Search     Forum Search     Register

HavenVideo contains User Generated Content and we Respect Copyright Holders
It is currently Fri Apr 18, 2014 4:04 am

All times are UTC [ DST ]




Post new topic Reply to topic  [ 1 post ] 
Author Message
 Post subject: Hinder - All American Nightmare (1080p) mkv
PostPosted: Fri Aug 26, 2011 7:12 pm 
Offline
New Member

Joined: Thu Apr 15, 2010 9:22 pm
Posts: 1
General


Video
ID : 1
Format : AVC
Format/Info : Advanced Video Codec
Format profile : Main@L5.1
Format settings, CABAC : Yes
Format settings, ReFrames : 1 frame
Muxing mode : Header stripping
Codec ID : V_MPEG4/ISO/AVC
Duration : 4mn 3s
Bit rate : 4 683 Kbps
Width : 1 920 pixels
Height : 1 078 pixels
Display aspect ratio : 16:9
Frame rate : 30.000 fps
Color space : YUV
Chroma subsampling : 4:2:0
Bit depth : 8 bits
Scan type : Progressive
Bits/(Pixel*Frame) : 0.075
Stream size : 136 MiB (82%)

Audio #1
ID : 2
Format : AC-3
Format/Info : Audio Coding 3
Mode extension : CM (complete main)
Muxing mode : Header stripping
Codec ID : A_AC3
Duration : 4mn 3s
Bit rate mode : Constant
Bit rate : 576 Kbps
Channel(s) : 6 channels
Channel positions : Front: L C R, Side: L R, LFE
Sampling rate : 48.0 KHz
Bit depth : 16 bits
Compression mode : Lossy
Stream size : 16.7 MiB (10%)

Audio #2
ID : 3
Format : MPEG Audio
Format version : Version 1
Format profile : Layer 3
Muxing mode : Header stripping
Codec ID : A_MPEG/L3
Codec ID/Hint : MP3
Duration : 4mn 3s
Bit rate mode : Constant
Bit rate : 320 Kbps
Channel(s) : 2 channels
Sampling rate : 48.0 KHz
Compression mode : Lossy
Stream size : 9.29 MiB (6%)
Writing library : LAMELAME_MAJOR_VERSI



Image

Image

Code:
http://www.filesonic.com/file/1763576034


Top
 Profile E-mail  
 
Display posts from previous:  Sort by  
Post new topic Reply to topic  [ 1 post ] 

All times are UTC [ DST ]


Who is online

Users browsing this forum: No registered users and 1 guest


You cannot post new topics in this forum
You cannot reply to topics in this forum
You cannot edit your posts in this forum
You cannot delete your posts in this forum

Jump to: